BitTorrentz.net - The Largest Bittorent System Advanced Search
BitTorrentz.net
LoginRegister
 Browse TorrentsSearch CloudUpload a torrentStatisticsInvite a FriendFAQ 
BitTorrentz.net

 





Browse TV torrents

The.X.Factor.UK.S10E23.HDTV.x264-GTi.mp4 Torrent Download


Download The.X.Factor.UK.S10E23.HDTV.x264-GTi.mp4 full version torrent with crack serial keygen from BitTorrentz.net torrents database

The.X.Factor.UK.S10E23.HDTV.x264-GTi.mp4
Download Full Version: The.X.Factor.UK.S10E23.HDTV.x264-GTi.mp4 The.X.Factor.UK.S10E23.HDTV.x264-GTi.mp4 Fullversion Download
Download Direct: The.X.Factor.UK.S10E23.HDTV.x264-GTi.mp4 The.X.Factor.UK.S10E23.HDTV.x264-GTi.mp4 Direct Download
Download Torrent: Download Torrent: The.X.Factor.UK.S10E23.HDTV.x264-GTi.mp4 The.X.Factor.UK.S10E23.HDTV.x264-GTi.mp4 Torrent Download
Info hash: f6e4026cb0b9d1016ad45a3fd3514679cfe82698
Tracker: http://tracker.thepiratebay.org/announce
Category: Categories > TV > TV - Other
Seeds: ---  
Leechers: ---
Health: Torrent health: 0
Total Size: 524.06 MB
Number of files: 1   View torrent files >
Downloaded: 3
Private: no
Torrent added: 2014-08-07 21:02:35
More Torrents: Related to The.X.Factor.UK.S10E23.HDTV.x264-GTi.mp4



Torrent Description

The.X.Factor.UK.S10E23.HDTV.x264-GTi.mp4

This might be the only working video file on the web. All other files are corrupted

General
Complete name : The.X.Factor.UK.S10E23.HDTV.x264-GTi.mp4
Format : MPEG-4
Format profile : Base Media / Version 2
Codec ID : mp42
File size : 524 MiB
Duration : 1h 4mn
Overall bit rate : 1 132 Kbps
Encoded date : UTC 2013-11-17 02:49:45
Tagged date : UTC 2013-11-17 03:11:11
Writing application : HandBrake 0.9.9 2013051800

Video
ID : 1
Format : AVC
Format/Info : Advanced Video Codec
Format profile : High@L3.1
Format settings, CABAC : Yes
Format settings, ReFrames : 5 frames
Codec ID : avc1
Codec ID/Info : Advanced Video Coding
Duration : 1h 4mn
Bit rate mode : Variable
Bit rate : 1 000 Kbps
Width : 720 pixels
Height : 404 pixels
Display aspect ratio : 16:9
Frame rate mode : Variable
Frame rate : 25.000 fps
Minimum frame rate : 8.333 fps
Maximum frame rate : 25.000 fps
Color space : YUV
Chroma subsampling : 4:2:0
Bit depth : 8 bits
Scan type : Progressive
Bits/(Pixel*Frame) : 0.138
Stream size : 463 MiB (88%)
Writing library : x264 core 130 r2273 b3065e6

Audio
ID : 2
Format : AAC
Format/Info : Advanced Audio Codec
Format profile : LC
Codec ID : 40
Duration : 1h 4mn
Bit rate mode : Variable
Bit rate : 128 Kbps
Maximum bit rate : 158 Kbps
Channel(s) : 2 channels
Channel positions : Front: L R
Sampling rate : 48.0 KHz
Compression mode : Lossy
Stream size : 59.2 MiB (11%)
Language : English
Encoded date : UTC 2013-11-17 02:49:45
Tagged date : UTC 2013-11-17 03:11:11


Comments (please add your comment)

No comments




BitTorrentz.net
We Recommend
BitTorrentz.net


Home - Browse Torrents - Upload Torrent - Copyright Compliance - Statistics - FAQ - Login